Infinite Skills – Learning Autodesk AutoCAD 2014 Training Video

Infinite Skills – Learning Autodesk AutoCAD 2014 Training Video
English | MP4 | 1280×720 | AVC 155 Kbps 15.000 fps | AAC 64.0 Kbps 44.1 khz | 14.5 hours | 2.5 GB
Genre: Video Training
In this project-based Learning Autodesk AutoCAD 2014 video tutorial series, you'll quickly have relevant skills for real-world applications.
Follow along with our expert instructor in this training course to get:
Concise, informative and broadcast-quality AutoCAD 2014 training videos delivered to your desktop
The ability to learn at your own pace with our intuitive, easy-to-use interface
A quick grasp of even the most complex AutoCAD 2014 subjects because they're broken into simple, easy to follow tutorial videos
Practical working files further enhance the learning process and provide a degree of retention that is unmatched by any other form of AutoCAD 2014 tutorial, online or offline… so you'll know the exact steps for your own projects.

01. Getting Started With AutoCAD 2014
02. New Features In AutoCAD 2014
03. Interfacing With AutoCAD
04. Basic Operations
05. Drawing And Drafting Tools
06. Editing Tools
07. Utilities: Tools To Know What Is Going On
08. Precision Tools: Tricks To Help You Draw Accurately
09. AutoCAD: Using Layers
10. Annotations
11. Blocks
12. Model And Paper Space
13. Plot And Publish
14. Final Project
15. About The Author

MediaInfo:
General
Complete name : Infiniteskills.Learning.Autodesk.AutoCAD.2014\0001.MP4
Format : MPEG-4
Format profile : Base Media / Version 2
Codec ID : mp42
File size : 3.83 MiB
Duration : 2mn 23s
Overall bit rate : 223 Kbps
Encoded date : UTC 2013-04-21 04:28:51
Tagged date : UTC 2013-04-21 03:31:23
Writing application : Sorenson Squeeze

Video
ID : 2
Format : AVC
Format/Info : Advanced Video Codec
Format profile : Main@L3.1
Format settings, CABAC : Yes
Format settings, ReFrames : 4 frames
Codec ID : avc1
Codec ID/Info : Advanced Video Coding
Duration : 2mn 23s
Duration_LastFrame : 55ms
Bit rate mode : Variable
Bit rate : 155 Kbps
Nominal bit rate : 225 Kbps
Width : 1 280 pixels
Height : 720 pixels
Display aspect ratio : 16:9
Frame rate mode : Constant
Frame rate : 15.000 fps
Color space : YUV
Chroma subsampling : 4:2:0
Bit depth : 8 bits
Scan type : Progressive
Bits/(Pixel*Frame) : 0.011
Stream size : 2.65 MiB (69%)
Writing library : x264 core 115
Encoding settings : cabac=1 / ref=3 / deblock=1:0:0 / analyse=0×1:0×111 / me=hex / subme=7 / psy=1 / psy_rd=1.00:0.00 / mixed_ref=1 / me_range=16 / chroma_me=1 / trellis=1 / 8x8dct=0 / cqm=0 / deadzone=21,11 / fast_pskip=1 / chroma_qp_offset=-2 / threads=1 / sliced_threads=0 / nr=0 / decimate=1 / interlaced=0 / bluray_compat=0 / constrained_intra=0 / bframes=3 / b_pyramid=2 / b_adapt=1 / b_bias=0 / direct=1 / weightb=1 / open_gop=0 / weightp=2 / keyint=149 / keyint_min=14 / scenecut=50 / intra_refresh=0 / rc_lookahead=40 / rc=2pass / mbtree=1 / bitrate=225 / ratetol=100.0 / qcomp=0.60 / qpmin=0 / qpmax=69 / qpstep=4 / cplxblur=20.0 / qblur=0.5 / ip_ratio=1.40 / aq=1:1.00
Encoded date : UTC 2013-04-21 04:28:51
Tagged date : UTC 2013-04-21 04:28:51

Audio
ID : 1
Format : AAC
Format/Info : Advanced Audio Codec
Format profile : LC
Codec ID : 40
Duration : 2mn 23s
Bit rate mode : Constant
Bit rate : 64.0 Kbps
Channel(s) : 1 channel
Channel positions : Front: C
Sampling rate : 44.1 KHz
Compression mode : Lossy
Stream size : 1.10 MiB (29%)
Encoded date : UTC 2013-04-21 04:28:51
Tagged date : UTC 2013-04-21 04:28:51

Giá: 30.000 vnd
(Mang theo USB để chép file)

Comments

comments

Leave a Reply

Your email address will not be published. Required fields are marked *

You may use these HTML tags and attributes: <a href="" title=""> <abbr title=""> <acronym title=""> <b> <blockquote cite=""> <cite> <code> <del datetime=""> <em> <i> <q cite=""> <strike> <strong>