Infinite Skills – Learning Adobe InDesign CC Training Video

Infinite Skills – Learning Adobe InDesign CC Training Video
English | MP4 | 1280×720 | AVC 225 Kbps 15.000 fps | AAC 64.0 Kbps 44.1 khz | 11.25 hours | 2.3 GB
Genre: Video Training
In this Adobe InDesign CC training course, Adobe Certified Instructor Jeff Witchel shows you how to use InDesign from the ground up – no experience required. InDesign is a desktop publishing application that allows you to design, layout and publish documents. This tutorial will show you how to use the tools and features available to you in this industry standard publishing software from Adobe.
Jeff starts off by introducing you to the new InDesign CC interface. He shows you how to set up your workspace and preferences to make your workflow efficient. As you work through each of the lessons in this video tutorial, you will learn how to layout your document with pages, add and manage objects, insert and format text, create styles, add tables and work with graphics. This training video covers all of the basic functions that you will need to create and publish amazing documents. You will learn how to work with color, swatches fills and strokes, add effects such as bevel and emboss, and even prepare your document for printing.
Once you have completed this computer based training course for Adobe InDesign CC, you will have a comprehensive understanding of how to create and publish your projects using the tools and techniques available in InDesign. Working files are included, allowing you to follow along with the author throughout the lessons.

01. Introduction
02. Workspace And Preferences
03. Layouts
04. Frames And Objects
05. Working With Text
06. Give Your Type Lots Of Character
07. Formatting The Whole Paragraph
08. Styles
09. Text With Objects
10. Long Documents
11. Tables
12. Graphics
13. Color, Swatches, Fills, And Strokes
14. Transparency And Effects
15. Printing
16. Extending The Capabilities Of InDesign
17. Conclusion

MediaInfo:

General
Complete name : Learning Adobe InDesign CC\0101.mp4
Format : MPEG-4
Format profile : Base Media / Version 2
Codec ID : mp42
File size : 6.26 MiB
Duration : 2mn 29s
Overall bit rate : 352 Kbps
Encoded date : UTC 2013-07-24 11:29:08
Tagged date : UTC 2013-07-24 15:29:09
Writing application : Sorenson Squeeze
Comment : Encoded by

Video
ID : 2
Format : AVC
Format/Info : Advanced Video Codec
Format profile : Main@L3.1
Format settings, CABAC : Yes
Format settings, ReFrames : 4 frames
Codec ID : avc1
Codec ID/Info : Advanced Video Coding
Duration : 2mn 29s
Bit rate mode : Variable
Bit rate : 283 Kbps
Nominal bit rate : 225 Kbps
Width : 1 280 pixels
Height : 720 pixels
Display aspect ratio : 16:9
Frame rate mode : Constant
Frame rate : 15.000 fps
Color space : YUV
Chroma subsampling : 4:2:0
Bit depth : 8 bits
Scan type : Progressive
Bits/(Pixel*Frame) : 0.020
Stream size : 5.03 MiB (80%)
Writing library : x264 core 129
Encoding settings : cabac=1 / ref=3 / deblock=1:0:0 / analyse=0x1:0x111 / me=hex / subme=7 / psy=1 / psy_rd=1.00:0.00 / mixed_ref=1 / me_range=16 / chroma_me=1 / trellis=1 / 8x8dct=0 / cqm=0 / deadzone=21,11 / fast_pskip=1 / chroma_qp_offset=-2 / threads=6 / lookahead_threads=1 / sliced_threads=0 / nr=0 / decimate=1 / interlaced=0 / bluray_compat=0 / constrained_intra=0 / bframes=3 / b_pyramid=2 / b_adapt=1 / b_bias=0 / direct=1 / weightb=1 / open_gop=0 / weightp=2 / keyint=150 / keyint_min=15 / scenecut=50 / intra_refresh=0 / rc_lookahead=40 / rc=2pass / mbtree=1 / bitrate=225 / ratetol=100.0 / qcomp=0.60 / qpmin=0 / qpmax=69 / qpstep=4 / cplxblur=20.0 / qblur=0.5 / ip_ratio=1.40 / aq=1:1.00
Encoded date : UTC 2013-07-24 11:29:08
Tagged date : UTC 2013-07-24 11:29:08

Audio
ID : 1
Format : AAC
Format/Info : Advanced Audio Codec
Format profile : LC
Codec ID : 40
Duration : 2mn 29s
Bit rate mode : Constant
Bit rate : 64.0 Kbps
Channel(s) : 1 channel
Channel positions : Front: C
Sampling rate : 44.1 KHz
Compression mode : Lossy
Stream size : 1.14 MiB (18%)
Encoded date : UTC 2013-07-24 11:29:08
Tagged date : UTC 2013-07-24 11:29:08

Giá: 30.000 vnd
(Mang theo USB để chép file)

Comments

comments

Leave a Reply

Your email address will not be published. Required fields are marked *